XitNews.com - развлекательный портал без возрастных ограничений. Огромная база развлекательного центра, дает вам доступ к новинкам кино, ведь новинки фильмов в хорошем качестве и с возможностью слить бесплатно

Посмотреть Виа ГРА клипы

Автор: Tiger555 Категория: Клипы | 11-09-2011, 21:41 |

Рейтинг: 
Нравится(+) 0 Не нравится(-)

Перед тем как сливать Виа ГРА клипы, проверте все ссылки!

MediaInfo
General
Format : AVI
Format/Info : Audio Video Interleave
File size : 700 MiB
Duration : 44mn 38s
Overall bit rate : 2 192 Kbps
Movie name : Виагра - клипы
Director : http://pc82/
Writing application : VirtualDubMod 1.5.10.1 (build 2389/release)VirtualDubMod build 2389/release
Copyright : Sony Music (c) 2003
Comment : Виагра - клипы / Благодарности: NickYan за DVD / Зарипано: http://pc82/ (с) 2004

Video
ID : 0
Format : MPEG-4 Visual
Format profile : Advanced [email protected]
Format settings, BVOP : 2
Format settings, QPel : No
Format settings, GMC : No warppoints
Format settings, Matrix : Default (H.263)
Muxing mode : Packed bitstream
Codec ID : DX50
Codec ID/Hint : DivX 5
Duration : 44mn 38s
Bit rate : 1 991 Kbps
Width : 576 pixels
Height : 432 pixels
Display aspect ratio : 4:3
Frame rate : 25.000 fps
Color space : YUV
Chroma subsampling : 4:2:0
Bit depth : 8 bits
Scan type : Progressive
Compression mode : Lossy
Bits/(Pixel*Frame) : 0.320
Stream size : 636 MiB (91%)
Writing library : XviD 1.0.0 RC4 (Hola) (UTC 2004-04-05)

Audio
ID : 1
Format : MPEG Audio
Format version : Version 1
Format profile : Layer 3
Mode : Joint stereo
Mode extension : MS Stereo
Codec ID : 55
Codec ID/Hint : MP3
Duration : 44mn 28s
Bit rate mode : Constant
Bit rate : 192 Kbps
Channel(s) : 2 channels
Sampling rate : 48.0 KHz
Compression mode : Lossy
Stream size : 61.1 MiB (9%)
Alignment : Aligned on interleaves
Interleave, duration : 40 ms (1.00 video frame)
Interleave, preload duration : 504 ms

Слить 699,97 МБ



{loadpays}

Посмотреть фильм Виа ГРА клипы безвозмездно, без регистрации


Фильм Виа ГРА клипы предоставлен вам исключительно в ознакомительных целях. Администрация сайта XitNEWS.com не несет ответственности за её содержимое.

Комментариев (0) Просмотров (143) Теги
Советуем посмотреть:
  • Русские сенсации. Рабы кредита.
  • Hamster Free Video Converter 2.0.1.26 Portable
  • Hamster Free Video Converter 2.0.0.24 Portable
  • AnyMP4 Video Converter Ultimate 6.1.26 Final
  • Any Video Converter Professional v 3.3.9 Rus
  • XitNews.com - развлекательный портал без возрастных ограничений. Огромная база развлекательного центра, дает вам доступ и с возможностью безвозмездно, это большая роскошь в интернете, ведь все устроено на коммерций.
    Навигация сайта
    Чатик
    НаписалPalach100
    6 августа 2013
    Отправил новость, выдайте мне статус Журналиста
    Написалvadim
    13 июля 2013
    Кто хочет ко мне на сайт журналистом, у сайт а большое будущее
    НаписалMatvealeksandr
    27 мая 2013
    Здравствуйте!
    Я добавил несколько новостей на пробу. Прошу проверить их на правильность оформления. Хотелось бы получить статус.
    Написалshark_biz_mavr
    20 мая 2013
    Здравствуйте Админ. Хочу стать жураналистом на вашем прекрасном сайте.
    НаписалRad4en9
    7 марта 2013
    Здраствуйте! Готов стать журналистом
    1. Опыт 2 года
    2.Софт,Музыка,Обои,Игры,Фильмы
    Новости добавил

    Ник - Rad4en9
    Написалakkus
    1 февраля 2013
    От akkus.
    Добрый день Добрый Админ!
    Позвольте стать у Вас на сайте журналистом!
    Написалshumaher205
    28 марта 2012
    дайте пожалуйста журналиста
    буду благодарен
    НаписалOscar sid
    23 января 2012
    дайте пожалуйста журналиста публикую обои
    Написалstast
    17 января 2012
    Здравтсвуйте. Статус журналиста можно получить?
    Написалaanyaa78
    5 января 2012
    Могу потсказать как сделать чтоб работал профиль поситителей!!! - Админ пиши в личку!

    Только зарегистрированные посетители могут писать в чате.
    Кто онлайн?

    Всего на сайте: 1

    Пользователей: 0

    Роботов: 0

    Гостей: 1

    Гость
    Популярные новости
    Облако тегов
    {tags1}
    У нас ищут:
    {referer}
    Календарь
    «    Сентябрь 2020    »
    ПнВтСрЧтПтСбВс
     
    1
    2
    3
    4
    5
    6
    7
    8
    9
    10
    11
    12
    13
    14
    15
    16
    17
    18
    19
    20
    21
    22
    23
    24
    25
    26
    27
    28
    29
    30