XitNews.com - развлекательный портал без возрастных ограничений. Огромная база развлекательного центра, дает вам доступ к новинкам кино, ведь новинки фильмов в хорошем качестве и с возможностью слить бесплатно
Автор: Tiger555 Категория: Клипы | 19-09-2011, 01:50 |

Рейтинг: 
Нравится(+) 0 Не нравится(-)

Перед тем как сливать Русские сенсации. Рабы кредита., проверте все ссылки!

General
Format : AVI
Format/Info : Audio Video Interleave
File size : 400 MiB
Duration : 43mn 5s
Overall bit rate : 1 298 Kbps
Writing application : VirtualDubMod 1.5.4.1 (build 2178/release)
Writing library : VirtualDubMod build 2178/release

Video
ID : 0
Format : MPEG-4 Visual
Format settings, BVOP : 1
Format settings, QPel : No
Format settings, GMC : No warppoints
Format settings, Matrix : Default (H.263)
Muxing mode : Packed bitstream
Codec ID : DX50
Codec ID/Hint : DivX 5
Duration : 43mn 5s
Bit rate : 1 180 Kbps
Width : 448 pixels
Height : 336 pixels
Display aspect ratio : 4:3
Frame rate : 25.000 fps
Color space : YUV
Chroma subsampling : 4:2:0
Bit depth : 8 bits
Scan type : Progressive
Compression mode : Lossy
Bits/(Pixel*Frame) : 0.314
Stream size : 364 MiB (91%)
Writing library : DivX 6.1.1 (UTC 2006-02-01)

Audio
ID : 1
Format : MPEG Audio
Format version : Version 1
Format profile : Layer 3
Mode : Joint stereo
Mode extension : MS Stereo
Codec ID : 55
Codec ID/Hint : MP3
Duration : 43mn 5s
Bit rate mode : Variable
Bit rate : 105 Kbps
Channel(s) : 2 channels
Sampling rate : 48.0 KHz
Compression mode : Lossy
Stream size : 32.3 MiB (8%)
Alignment : Aligned on interleaves
Interleave, duration : 24 ms (0.60 video frame)
Interleave, preload duration : 531 ms


Слить с unibytes.com (400,15 МБ)
Слить с depositfiles.com (400,15 МБ)
Слить с letitbit.net (400,15 МБ)



Слить "Русские сенсации. Рабы кредита." с Letitbit.net

 

{loadpays}

Посмотреть фильм Русские сенсации. Рабы кредита. безвозмездно, без регистрации


Фильм Русские сенсации. Рабы кредита. предоставлен вам исключительно в ознакомительных целях. Администрация сайта XitNEWS.com не несет ответственности за её содержимое.

Комментариев (0) Просмотров (120) Теги
Советуем посмотреть:
  • Виа ГРА клипы
  • Hamster Free Video Converter 2.0.1.26 Portable
  • Hamster Free Video Converter 2.0.0.24 Portable
  • Any Video Converter Professional v 3.3.9 Rus
  • AnyMP4 Video Converter Ultimate 6.1.26 Final
  • XitNews.com - развлекательный портал без возрастных ограничений. Огромная база развлекательного центра, дает вам доступ и с возможностью безвозмездно, это большая роскошь в интернете, ведь все устроено на коммерций.
    Навигация сайта
    Чатик
    НаписалPalach100
    6 августа 2013
    Отправил новость, выдайте мне статус Журналиста
    Написалvadim
    13 июля 2013
    Кто хочет ко мне на сайт журналистом, у сайт а большое будущее
    НаписалMatvealeksandr
    27 мая 2013
    Здравствуйте!
    Я добавил несколько новостей на пробу. Прошу проверить их на правильность оформления. Хотелось бы получить статус.
    Написалshark_biz_mavr
    20 мая 2013
    Здравствуйте Админ. Хочу стать жураналистом на вашем прекрасном сайте.
    НаписалRad4en9
    7 марта 2013
    Здраствуйте! Готов стать журналистом
    1. Опыт 2 года
    2.Софт,Музыка,Обои,Игры,Фильмы
    Новости добавил

    Ник - Rad4en9
    Написалakkus
    1 февраля 2013
    От akkus.
    Добрый день Добрый Админ!
    Позвольте стать у Вас на сайте журналистом!
    Написалshumaher205
    28 марта 2012
    дайте пожалуйста журналиста
    буду благодарен
    НаписалOscar sid
    23 января 2012
    дайте пожалуйста журналиста публикую обои
    Написалstast
    17 января 2012
    Здравтсвуйте. Статус журналиста можно получить?
    Написалaanyaa78
    5 января 2012
    Могу потсказать как сделать чтоб работал профиль поситителей!!! - Админ пиши в личку!

    Только зарегистрированные посетители могут писать в чате.
    Кто онлайн?

    Всего на сайте: 1

    Пользователей: 0

    Роботов: 0

    Гостей: 1

    Гость
    Популярные новости
    Облако тегов
    {tags1}
    У нас ищут:
    {referer}
    Календарь
    «    Сентябрь 2020    »
    ПнВтСрЧтПтСбВс
     
    1
    2
    3
    4
    5
    6
    7
    8
    9
    10
    11
    12
    13
    14
    15
    16
    17
    18
    19
    20
    21
    22
    23
    24
    25
    26
    27
    28
    29
    30